osu file format v14

[General]
AudioFilename: Razihel & Virtual Riot - One for All, All for One.mp3
AudioLeadIn: 1700
PreviewTime: 171652
Countdown: 0
SampleSet: Soft
StackLeniency: 0.7
Mode: 0
LetterboxInBreaks: 0
WidescreenStoryboard: 0

[Editor]
Bookmarks: 119204,132445
DistanceSpacing: 1.61
BeatDivisor: 4
GridSize: 4
TimelineZoom: 3.299999

[Metadata]
Title:One For All, All For One
TitleUnicode:One For All, All For One
Artist:Razihel & Virtual Riot
ArtistUnicode:Razihel & Virtual Riot
Creator:Fort
Version:Chaoz's Insane
Source:
Tags:8bit Arcubin bbj0920 byfar chaoslitz CelsiusLK CLK deetz monstercat release Dubstep nintendo nintendostep 014 discovery
BeatmapID:671745
BeatmapSetID:275655

[Difficulty]
HPDrainRate:6
CircleSize:4
OverallDifficulty:8
ApproachRate:9
SliderMultiplier:1.6
SliderTickRate:1

[Events]
//Background and Video events
0,0,"1366x768-pixiv_fantasia_long_hair_pink_eyes-28824.jpg",0,0
//Break Periods
2,109473,118604
2,198852,203018
//Storyboard Layer 0 (Background)
//Storyboard Layer 1 (Fail)
//Storyboard Layer 2 (Pass)
//Storyboard Layer 3 (Foreground)
//Storyboard Sound Samples

[TimingPoints]
32,413.793103448276,4,2,4,30,1,0
12859,-66.6666666666667,4,2,4,50,0,0
13273,-83.3333333333333,4,2,4,50,0,0
38100,-100,4,2,4,50,0,0
38928,-83.3333333333333,4,2,4,50,0,0
39342,-66.6666666666667,4,2,4,50,0,0
39756,-133.333333333333,4,2,4,60,0,1
40169,-100,4,2,4,60,0,1
41411,-133.333333333333,4,2,4,60,0,1
41825,-100,4,2,4,60,0,1
43066,-133.333333333333,4,2,4,60,0,1
43480,-100,4,2,4,60,0,1
45963,-66.6666666666667,4,2,4,60,0,1
46376,-133.333333333333,4,2,4,60,0,1
46790,-100,4,2,4,60,0,1
47618,-66.6666666666667,4,2,4,60,0,1
48032,-133.333333333333,4,2,4,60,0,1
48445,-100,4,2,4,60,0,1
49687,-133.333333333333,4,2,4,60,0,1
50100,-100,4,2,4,60,0,1
52997,-133.333333333333,4,2,4,60,0,1
53411,-100,4,2,4,60,0,1
54238,-66.6666666666667,4,2,4,60,0,1
54652,-133.333333333333,4,2,4,60,0,1
55066,-100,4,2,4,60,0,1
56307,-133.333333333333,4,2,4,60,0,1
56721,-100,4,2,4,60,0,1
59204,-66.6666666666667,4,2,4,60,0,1
59618,-133.333333333333,4,2,4,60,0,1
60032,-100,4,2,4,60,0,1
60859,-66.6666666666667,4,2,4,60,0,1
61273,-133.333333333333,4,2,4,60,0,1
61687,-100,4,2,4,60,0,1
62928,-133.333333333333,4,2,4,60,0,1
63342,-100,4,2,4,60,0,1
64583,-83.3333333333333,4,2,4,60,0,1
66238,-83.3333333333333,4,2,4,50,0,0
77825,-100,4,2,4,50,0,0
78652,-83.3333333333333,4,2,4,50,0,0
79066,-66.6666666666667,4,2,4,50,0,0
79480,-133.333333333333,4,2,4,60,0,1
80100,-100,4,2,4,60,0,1
80721,-133.333333333333,4,2,4,60,0,1
81135,-100,4,2,4,60,0,1
82790,-133.333333333333,4,2,4,60,0,1
83411,-100,4,2,4,60,0,1
84445,-133.333333333333,4,2,4,60,0,1
85687,-83.3333333333333,4,2,4,60,0,1
86100,-133.333333333333,4,2,4,60,0,1
86721,-100,4,2,4,60,0,1
87756,-133.333333333333,4,2,4,60,0,1
88169,-100,4,2,4,60,0,1
89411,-133.333333333333,4,2,4,60,0,1
90032,-100,4,2,4,60,0,1
92307,-83.3333333333333,4,2,4,60,0,1
92721,-133.333333333333,4,2,4,60,0,1
93135,-100,4,2,4,60,0,1
93963,-66.6666666666667,4,2,4,60,0,1
94376,-133.333333333333,4,2,4,60,0,1
94790,-100,4,2,4,60,0,1
96032,-133.333333333333,4,2,4,60,0,1
96445,-100,4,2,4,60,0,1
98928,-66.6666666666667,4,2,4,60,0,1
99342,-133.333333333333,4,2,4,60,0,1
99756,-100,4,2,4,60,0,1
100583,-66.6666666666667,4,2,4,60,0,1
100997,-133.333333333333,4,2,4,60,0,1
101411,-100,4,2,4,60,0,1
102652,-133.333333333333,4,2,4,60,0,1
103066,-100,4,2,4,60,0,1
104307,-83.3333333333333,4,2,4,60,0,1
104928,-66.6666666666667,4,2,4,60,0,1
105549,-57.1428571428571,4,2,4,60,0,1
105963,-100,4,2,4,50,0,0
107204,-100,4,2,4,30,0,0
108445,-100,4,2,4,20,0,0
119204,-100,4,2,4,30,0,0
132032,-83.3333333333333,4,2,4,40,0,0
145273,-66.6666666666667,4,2,4,40,0,0
145687,-83.3333333333333,4,2,4,20,0,0
146307,-83.3333333333333,4,2,4,30,0,0
146928,-83.3333333333333,4,2,4,40,0,0
158928,-100,4,2,4,40,0,0
166376,-100,4,2,4,50,0,0
168032,-100,4,2,4,55,0,0
170514,-66.6666666666667,4,2,4,30,0,0
172169,-66.6666666666667,4,2,4,70,0,1
198652,-66.6666666666667,4,2,4,60,0,0
203618,-83.3333333333333,4,2,4,50,0,0
210238,-100,4,2,4,60,0,0
211066,-83.3333333333333,4,2,4,60,0,0
211480,-66.6666666666667,4,2,4,60,0,0
211894,-133.333333333333,4,2,4,60,0,1
212514,-100,4,2,4,60,0,1
213135,-133.333333333333,4,2,4,60,0,1
213549,-100,4,2,4,60,0,1
215204,-133.333333333333,4,2,4,60,0,1
215825,-100,4,2,4,60,0,1
216859,-133.333333333333,4,2,4,60,0,1
218100,-83.3333333333333,4,2,4,60,0,1
218514,-133.333333333333,4,2,4,60,0,1
219135,-100,4,2,4,60,0,1
220169,-133.333333333333,4,2,4,60,0,1
220583,-100,4,2,4,60,0,1
221825,-133.333333333333,4,2,4,60,0,1
222445,-100,4,2,4,60,0,1
224721,-83.3333333333333,4,2,4,60,0,1
225135,-133.333333333333,4,2,4,60,0,1
225549,-100,4,2,4,60,0,1
226376,-66.6666666666667,4,2,4,60,0,1
226790,-133.333333333333,4,2,4,60,0,1
227204,-100,4,2,4,60,0,1
228445,-133.333333333333,4,2,4,60,0,1
228859,-100,4,2,4,60,0,1
231342,-66.6666666666667,4,2,4,60,0,1
231756,-133.333333333333,4,2,4,60,0,1
232169,-100,4,2,4,60,0,1
232997,-66.6666666666667,4,2,4,60,0,1
233411,-133.333333333333,4,2,4,60,0,1
233825,-100,4,2,4,60,0,1
235066,-133.333333333333,4,2,4,60,0,1
235480,-100,4,2,4,60,0,1
236721,-83.3333333333333,4,2,4,60,0,1
237342,-66.6666666666667,4,2,4,60,0,1
237963,-57.0450656018254,4,2,4,60,0,1
238376,-100,4,2,4,60,0,0

[Colours]
Combo1 : 183,0,0
Combo2 : 173,173,173
Combo3 : 105,105,105
Combo4 : 98,98,255
Combo5 : 0,0,230
Combo6 : 255,32,143
Combo7 : 155,0,78
Combo8 : 255,60,60

[HitObjects]
141,158,32,6,0,B|171:154|200:168|216:191,1,80,4|0,0:0|0:0,0:0:0:0:
142,246,445,2,0,B|128:272|103:287|76:289,1,80,,,0:0:0:0:
63,204,859,2,0,B|48:180|46:152|55:128,1,80,8|0,0:0|0:0,0:0:0:0:
106,52,1273,1,0,0:0:0:0:
140,44,1376,1,0,0:0:0:0:
174,40,1479,1,0,0:0:0:0:
209,42,1583,1,0,0:0:0:0:
244,49,1687,6,0,B|288:59|332:46,1,80,,,0:0:0:0:
474,99,2100,2,0,L|387:101,1,80,,,0:0:0:0:
262,246,2514,2,0,B|249:218|250:187|263:162,1,80,8|8,0:0|3:0,0:0:0:0:
278,132,2825,1,8,3:0:0:0:
278,132,2928,2,0,L|321:122,1,40,8|0,3:0|0:0,0:0:0:0:
373,188,3135,2,0,L|414:188,1,40,4|0,3:0|0:0,0:0:0:0:
464,254,3342,6,0,B|455:282|432:300|406:306,1,80,4|0,0:0|0:0,0:0:0:0:
236,280,3756,2,0,B|265:274|294:278|319:288,1,80,,,0:0:0:0:
382,133,4169,2,0,B|387:182|375:229,1,80,8|0,0:0|0:0,0:0:0:0:
444,76,4583,2,0,L|488:69,1,40,,,0:0:0:0:
368,52,4790,2,0,L|322:49,1,40,,,0:0:0:0:
241,78,4997,6,0,B|212:86|184:83|160:70,1,80,,,0:0:0:0:
67,99,5411,2,0,B|61:57|72:16,1,80,,,0:0:0:0:
136,163,5825,2,0,B|141:205|131:246,1,80,8|8,0:0|3:0,0:0:0:0:
124,278,6135,1,8,3:0:0:0:
122,313,6238,1,8,3:0:0:0:
140,343,6341,1,0,0:0:0:0:
172,357,6445,1,0,0:0:0:0:
205,352,6548,1,0,0:0:0:0:
232,330,6652,6,0,B|263:316|298:319|325:335,1,80,4|0,0:0|0:0,0:0:0:0:
433,240,7066,2,0,B|402:254|367:251|340:235,1,80,,,0:0:0:0:
256,186,7480,2,0,B|244:155|246:122|257:94,1,80,8|0,0:0|0:0,0:0:0:0:
332,35,7894,1,0,0:0:0:0:
367,29,7997,1,0,0:0:0:0:
401,27,8100,1,0,0:0:0:0:
436,31,8204,1,0,0:0:0:0:
470,41,8307,6,0,B|479:70|474:100|459:123,1,80,,,0:0:0:0:
386,190,8721,2,0,B|360:207|329:210|302:202,1,80,,,0:0:0:0:
159,106,9135,2,0,B|184:88|215:84|242:93,1,80,8|8,0:0|3:0,0:0:0:0:
230,123,9445,2,0,L|226:169,1,40,8|8,3:0|3:0,0:0:0:0:
336,117,9652,2,0,L|340:71,1,40,0|4,0:0|3:0,0:0:0:0:
386,190,9859,1,0,0:0:0:0:
406,222,9963,6,0,B|419:265|397:310,1,80,4|0,0:0|0:0,0:0:0:0:
252,337,10376,2,0,B|262:247,1,80,,,0:0:0:0:
311,107,10790,2,0,B|301:197,1,80,8|0,0:0|0:0,0:0:0:0:
162,259,11204,1,0,0:0:0:0:
122,256,11307,1,0,0:0:0:0:
82,248,11410,1,0,0:0:0:0:
44,233,11514,1,0,0:0:0:0:
14,206,11618,6,0,B|7:164|10:122,2,80,,,0:0:0:0:
59,337,12238,1,0,0:0:0:0:
237,245,12445,2,0,B|244:278|226:310|198:323,1,80,12|0,0:0|0:0,0:0:0:0:
129,166,12859,6,0,B|131:148|131:148|125:130|125:130|133:109|133:109|117:74|130:37,1,120.000004577637,2|2,1:0|1:0,0:0:0:0:
288,101,13273,6,0,B|325:82|367:87|397:109,1,95.9999970703126,4|0,0:0|0:0,0:0:0:0:
470,164,13687,2,0,L|477:49,1,95.9999970703126,,,0:0:0:0:
375,202,14100,2,0,B|381:254|367:303,1,95.9999970703126,0|0,1:0|0:0,0:0:0:0:
243,324,14514,1,0,0:0:0:0:
204,324,14617,1,0,0:0:0:0:
166,325,14720,1,0,0:0:0:0:
127,326,14824,1,0,0:0:0:0:
89,326,14928,6,0,B|61:303|54:266|66:235,1,95.9999970703126,4|0,3:0|0:0,0:0:0:0:
82,205,15238,1,0,0:0:0:0:
112,181,15342,2,0,B|141:159|179:160|205:181,1,95.9999970703126,,,0:0:0:0:
375,202,15756,2,0,B|347:224|309:224|282:206,1,95.9999970703126,0|8,1:0|3:0,0:0:0:0:
291,170,16066,1,8,3:0:0:0:
295,132,16169,1,8,3:0:0:0:
299,94,16272,1,0,0:0:0:0:
304,56,16376,1,4,3:0:0:0:
206,150,16583,6,0,L|201:51,1,95.9999970703126,4|0,0:0|0:0,0:0:0:0:
114,136,16997,2,0,L|100:40,1,95.9999970703126,,,0:0:0:0:
46,184,17411,2,0,B|66:216|105:227|138:214,1,95.9999970703126,0|0,1:0|0:0,0:0:0:0:
206,150,17825,2,0,L|211:199,1,47.9999985351563,,,0:0:0:0:
297,191,18032,2,0,L|293:238,1,47.9999985351563,,,0:0:0:0:
353,283,18238,6,0,B|328:313|286:319|254:301,1,95.9999970703126,4|0,3:0|0:0,0:0:0:0:
230,292,18549,1,0,0:0:0:0:
230,292,18652,2,0,B|196:275|157:281|129:303,1,95.9999970703126,,,0:0:0:0:
23,342,19066,5,2,1:0:0:0:
23,342,19169,1,0,1:0:0:0:
23,342,19273,2,0,L|13:279,1,47.9999985351563,0|2,0:0|1:0,0:0:0:0:
56,215,19480,2,0,B|67:176|65:138|53:103,1,95.9999970703126,0|2,0:0|1:0,0:0:0:0:
179,48,19894,6,0,B|215:62|254:57|284:38,1,95.9999970703126,4|0,0:0|0:0,0:0:0:0:
371,105,20307,2,0,L|379:221,1,95.9999970703126,,,0:0:0:0:
445,41,20721,1,0,1:0:0:0:
288,155,20928,1,0,0:0:0:0:
470,157,21135,2,0,B|471:176|465:194|455:208,1,47.9999985351563,,,0:0:0:0:
472,281,21342,2,0,B|460:296|444:306|427:310,1,47.9999985351563,,,0:0:0:0:
359,339,21549,6,0,B|316:345|278:315|273:274,1,95.9999970703126,4|0,3:0|0:0,0:0:0:0:
271,258,21859,1,0,0:0:0:0:
278,220,21963,2,0,B|289:183|287:146|276:113,1,95.9999970703126,,,0:0:0:0:
150,34,22376,1,0,1:0:0:0:
27,185,22583,2,0,L|90:183,1,47.9999985351563,8|8,3:0|3:0,0:0:0:0:
149,199,22790,2,0,L|212:198,1,47.9999985351563,8|0,3:0|0:0,0:0:0:0:
278,220,22997,1,4,3:0:0:0:
409,341,23204,6,0,B|362:308|343:249|359:194|395:160,1,191.999994140625,4|0,0:0|0:0,0:0:0:0:
385,172,23825,1,0,0:0:0:0:
466,67,24032,2,0,B|433:87|394:88|361:74,1,95.9999970703126,0|0,1:0|0:0,0:0:0:0:
234,40,24445,1,0,0:0:0:0:
196,33,24548,1,0,0:0:0:0:
157,32,24651,1,0,0:0:0:0:
120,42,24755,1,0,0:0:0:0:
87,63,24859,6,0,B|70:93|72:119|83:144|83:144|128:160|134:197|134:197|96:252|137:272|87:288|87:288|60:253,1,287.999991210938,4|0,0:0|0:0,0:0:0:0:
6,144,25687,2,0,B|-3:114|3:84,1,47.9999985351563,6|8,1:0|3:0,0:0:0:0:
82,15,25894,2,0,B|91:45|85:75,1,47.9999985351563,4|4,3:0|3:0,0:0:0:0:
84,142,26100,5,6,1:0:0:0:
116,149,26204,1,2,1:0:0:0:
154,151,26307,1,0,0:0:0:0:
192,145,26411,1,2,1:0:0:0:
237,131,26514,6,0,B|274:116|314:119|347:135,1,95.9999970703126,4|0,0:0|0:0,0:0:0:0:
330,128,26825,1,0,0:0:0:0:
330,128,26928,1,0,0:0:0:0:
469,197,27135,1,0,0:0:0:0:
390,325,27342,2,0,B|375:271|378:217|394:168,1,143.999995605469,0|0,1:0|0:0,0:0:0:0:
407,137,27756,2,0,B|414:98|390:62|355:51,1,95.9999970703126,,,0:0:0:0:
254,115,28169,6,0,B|247:154|271:190|306:201,1,95.9999970703126,,,0:0:0:0:
293,195,28480,1,0,0:0:0:0:
293,195,28583,1,0,0:0:0:0:
387,80,28790,1,0,0:0:0:0:
288,33,28997,2,0,L|176:28,1,95.9999970703126,0|8,1:0|3:0,0:0:0:0:
116,68,29307,2,0,L|68:72,1,47.9999985351563,8|8,3:0|3:0,0:0:0:0:
183,163,29618,1,4,3:0:0:0:
69,246,29825,6,0,L|64:359,1,95.9999970703126,4|0,0:0|0:0,0:0:0:0:
64,341,30135,1,0,0:0:0:0:
64,341,30238,1,0,0:0:0:0:
225,277,30445,1,0,0:0:0:0:
114,165,30652,2,0,B|140:202|187:215|229:200|254:170,1,143.999995605469,0|0,1:0|0:0,0:0:0:0:
277,151,31066,2,0,B|284:100|279:50,1,95.9999970703126,,,0:0:0:0:
187,18,31480,6,0,B|180:67|188:114,1,95.9999970703126,,,0:0:0:0:
187,113,31790,1,0,0:0:0:0:
187,113,31894,1,0,0:0:0:0:
225,277,32100,1,0,0:0:0:0:
411,165,32307,2,0,B|418:187|418:210|412:231,1,47.9999985351563,2|0,0:0|0:0,0:0:0:0:
336,193,32514,2,0,B|329:171|329:148|335:127,1,47.9999985351563,2|0,0:0|0:0,0:0:0:0:
383,85,32721,2,0,B|349:56|298:61|269:93,1,95.9999970703126,2|2,1:0|1:0,0:0:0:0:
188,114,33135,6,0,B|157:129|122:124|98:103,1,95.9999970703126,4|0,0:0|0:0,0:0:0:0:
98,103,33445,1,0,0:0:0:0:
98,103,33549,1,0,0:0:0:0:
220,34,33756,1,0,0:0:0:0:
262,168,33963,2,0,B|287:218|277:276|243:314,1,143.999995605469,0|0,1:0|0:0,0:0:0:0:
213,334,34376,2,0,B|254:319|296:322|332:338,1,95.9999970703126,,,0:0:0:0:
429,293,34790,6,0,B|397:277|381:242|386:210,1,95.9999970703126,,,0:0:0:0:
385,213,35100,1,0,0:0:0:0:
385,213,35204,1,0,0:0:0:0:
435,35,35411,1,0,0:0:0:0:
266,122,35618,2,0,L|363:127,1,95.9999970703126,0|8,1:0|3:0,0:0:0:0:
443,119,35928,2,0,L|500:115,1,47.9999985351563,8|8,3:0|3:0,0:0:0:0:
352,44,36238,1,4,3:0:0:0:
135,178,36445,5,0,3:0:0:0:
261,37,36652,1,0,3:0:0:0:
200,224,36859,1,0,3:0:0:0:
261,37,37066,1,0,3:0:0:0:
278,235,37273,5,0,1:0:0:0:
261,37,37480,1,0,0:0:0:0:
162,89,37687,1,0,0:0:0:0:
192,112,37790,1,0,0:0:0:0:
228,124,37893,1,0,0:0:0:0:
266,124,37997,1,0,0:0:0:0:
296,114,38100,6,0,B|327:103|359:107|386:120,1,80,,,0:0:0:0:
463,156,38514,2,0,B|455:119|458:82|468:49,1,80,,,0:0:0:0:
386,190,38928,6,0,L|421:234,1,47.9999985351563,2|0,0:0|0:0,0:0:0:0:
386,341,39135,2,0,L|421:297,1,47.9999985351563,2|0,0:0|0:0,0:0:0:0:
463,156,39342,6,0,B|457:129|432:112|405:115,1,60.0000022888184,2|0,1:0|0:0,0:0:0:0:
261,37,39549,2,0,B|235:46|217:66|208:89,1,60.0000022888184,2|0,1:0|0:0,0:0:0:0:
173,140,39756,6,0,B|204:163|248:155|270:125,1,90.0000034332277,4|0,1:0|0:0,0:0:0:0:
215,74,40169,2,0,B|174:50|123:64|98:102,1,120,4|0,3:0|0:0,0:0:0:0:
87,166,40583,2,0,B|91:188|103:206|119:218,1,40,0|0,1:0|0:0,0:0:0:0:
176,279,40790,2,0,B|196:289|218:290|237:283,1,40,0|0,1:0|0:0,0:0:0:0:
300,342,40997,2,0,B|335:340|364:317|375:287,1,80,0|0,1:0|0:0,0:0:0:0:
292,242,41411,6,0,B|333:204|316:146,1,90.0000034332277,4|0,3:0|0:0,0:0:0:0:
272,94,41825,2,0,B|266:53|266:53|279:12,1,80,2|0,1:0|0:0,0:0:0:0:
437,70,42238,2,0,B|469:79|493:102|504:130,1,80,0|0,1:0|0:0,0:0:0:0:
509,149,42549,1,0,0:0:0:0:
512,181,42652,1,0,1:0:0:0:
511,213,42756,1,0,1:0:0:0:
503,244,42859,1,0,0:0:0:0:
489,273,42963,1,0,1:0:0:0:
465,294,43066,6,0,B|402:294|402:294|378:272,1,90.0000034332277,4|0,0:0|0:0,0:0:0:0:
412,202,43480,2,0,B|372:183|324:203|309:244,1,120,4|0,3:0|0:0,0:0:0:0:
293,314,43894,2,0,B|291:331|294:348|302:361,1,40,0|0,1:0|0:0,0:0:0:0:
211,279,44100,2,0,B|205:295|206:312|211:326,1,40,0|0,1:0|0:0,0:0:0:0:
136,236,44307,2,0,B|128:251|126:268|128:283,1,40,0|0,1:0|1:0,0:0:0:0:
127,274,44514,1,0,1:0:0:0:
127,274,44618,1,0,1:0:0:0:
70,189,44721,6,0,B|97:150|152:143|188:173,1,120,4|0,0:0|0:0,0:0:0:0:
211,185,45135,2,0,B|226:142|225:98|212:58,1,120,,,0:0:0:0:
214,66,45549,1,0,1:0:0:0:
251,82,45652,1,0,0:0:0:0:
290,87,45756,1,0,0:0:0:0:
329,81,45859,1,0,0:0:0:0:
367,64,45963,6,0,B|414:84|432:144|399:192|353:201,1,180.000006866455,4|0,0:0|0:0,0:0:0:0:
341,130,46376,6,0,B|379:116|419:121|452:138,1,90.0000034332277,4|0,1:0|0:0,0:0:0:0:
512,108,46790,2,0,B|504:170|512:230,1,120,4|0,3:0|0:0,0:0:0:0:
474,298,47204,2,0,B|454:304|434:302,1,40,2|0,0:0|0:0,0:0:0:0:
303,243,47411,2,0,B|322:249|342:247,1,40,2|0,0:0|0:0,0:0:0:0:
427,163,47618,6,0,B|432:188|427:212|415:231,1,60.0000022888184,2|0,1:0|0:0,0:0:0:0:
315,323,47825,2,0,B|287:327|261:317|243:299,1,60.0000022888184,2|0,1:0|0:0,0:0:0:0:
182,344,48032,6,0,B|153:324|140:291|144:259,1,90.0000034332277,4|0,0:0|0:0,0:0:0:0:
171,192,48445,2,0,L|192:125,1,40,0|0,1:0|0:0,0:0:0:0:
127,90,48652,2,0,L|119:46,1,40,0|0,1:0|0:0,0:0:0:0:
81,164,48859,1,0,1:0:0:0:
206,78,49066,1,0,0:0:0:0:
235,66,49169,1,0,0:0:0:0:
267,67,49272,1,0,1:0:0:0:
296,81,49376,1,0,0:0:0:0:
317,104,49479,1,0,0:0:0:0:
328,134,49583,1,0,0:0:0:0:
330,164,49687,6,0,B|311:197|317:237|340:262,1,90.0000034332277,4|0,1:0|0:0,0:0:0:0:
395,206,50100,2,0,B|431:199|465:217|481:250|478:281,1,120,4|0,3:0|0:0,0:0:0:0:
405,316,50514,2,0,L|408:277,1,40,2|0,1:0|0:0,0:0:0:0:
431,178,50721,2,0,L|433:138,1,40,2|0,1:0|0:0,0:0:0:0:
458,47,50928,2,0,L|399:42,1,40,2|0,1:0|0:0,0:0:0:0:
316,68,51135,2,0,L|257:63,1,40,2|0,1:0|0:0,0:0:0:0:
161,41,51342,6,0,B|129:32|97:37|72:53,1,80,4|0,0:0|0:0,0:0:0:0:
82,47,51652,1,0,0:0:0:0:
82,47,51756,1,0,1:0:0:0:
205,120,51963,1,0,0:0:0:0:
287,232,52169,1,2,1:0:0:0:
289,200,52272,1,0,1:0:0:0:
291,168,52375,1,0,0:0:0:0:
293,137,52479,1,2,1:0:0:0:
294,105,52583,2,0,B|292:69|267:42|235:34,1,80,0|2,0:0|1:0,0:0:0:0:
134,65,52997,6,0,B|112:95|111:132|126:163,1,90.0000034332277,4|0,1:0|0:0,0:0:0:0:
129,229,53411,2,0,B|120:275|73:303|29:290,1,120,4|0,3:0|0:0,0:0:0:0:
53,219,53825,2,0,L|35:175,1,40,0|0,1:0|0:0,0:0:0:0:
129,229,54032,2,0,L|144:266,1,40,0|0,1:0|0:0,0:0:0:0:
197,341,54238,6,0,B|219:291|277:268|330:291|354:332,1,180.000006866455,2|0,1:0|0:0,0:0:0:0:
422,348,54652,6,0,B|413:301|428:255,1,90.0000034332277,4|0,0:0|0:0,0:0:0:0:
469,191,55066,2,0,B|478:151|478:151|463:98,1,80,2|0,1:0|0:0,0:0:0:0:
373,39,55480,2,0,B|346:58|312:57|286:42,1,80,0|0,1:0|0:0,0:0:0:0:
269,30,55790,1,0,0:0:0:0:
266,62,55893,1,0,1:0:0:0:
264,94,55996,1,0,1:0:0:0:
261,126,56100,1,0,0:0:0:0:
258,157,56203,1,0,1:0:0:0:
255,187,56307,6,0,B|240:222|201:237|168:224,1,90.0000034332277,4|0,1:0|0:0,0:0:0:0:
117,270,56721,2,0,B|92:229|109:177|152:157,1,120,4|0,3:0|0:0,0:0:0:0:
185,93,57135,2,0,B|188:76|185:59|178:45,1,40,0|0,1:0|0:0,0:0:0:0:
100,94,57341,2,0,B|95:77|84:64|71:56,1,40,0|0,1:0|0:0,0:0:0:0:
30,142,57549,2,0,B|21:127|9:116|-5:109,1,40,0|0,1:0|1:0,0:0:0:0:
2,113,57756,1,0,1:0:0:0:
2,113,57859,1,0,1:0:0:0:
106,179,57963,6,0,B|153:196|202:196|246:183,1,120,4|0,0:0|0:0,0:0:0:0:
262,177,58376,2,0,B|300:178|330:208|334:247|318:276,1,120,,,0:0:0:0:
323,261,58790,1,0,1:0:0:0:
352,246,58893,1,0,0:0:0:0:
383,239,58996,1,0,0:0:0:0:
415,241,59100,1,0,0:0:0:0:
444,251,59204,6,0,B|493:241|524:192|514:140|481:111,1,180.000006866455,4|0,0:0|0:0,0:0:0:0:
492,31,59618,6,0,B|458:25|426:41|409:67,1,90.0000034332277,4|0,1:0|0:0,0:0:0:0:
363,120,60032,2,0,B|331:151|285:156|248:139,1,120,4|0,3:0|0:0,0:0:0:0:
199,75,60445,2,0,B|195:56|197:37|202:20,1,40,2|0,0:0|0:0,0:0:0:0:
291,6,60652,2,0,B|295:26|292:46,1,40,2|0,0:0|0:0,0:0:0:0:
252,141,60859,6,0,B|235:154|215:160|195:161,1,60.0000022888184,2|0,1:0|0:0,0:0:0:0:
121,226,61066,2,0,B|100:230|80:226|63:216,1,60.0000022888184,2|0,1:0|0:0,0:0:0:0:
0,171,61273,6,0,L|8:73,1,90.0000034332277,4|0,0:0|0:0,0:0:0:0:
87,34,61687,2,0,L|148:27,1,40,0|0,1:0|0:0,0:0:0:0:
221,49,61894,2,0,L|281:53,1,40,0|0,1:0|0:0,0:0:0:0:
162,117,62100,1,0,1:0:0:0:
198,210,62307,1,0,0:0:0:0:
226,223,62410,1,0,0:0:0:0:
258,225,62513,1,0,1:0:0:0:
289,215,62617,1,0,0:0:0:0:
314,196,62720,1,0,0:0:0:0:
330,168,62824,1,0,0:0:0:0:
335,137,62928,6,0,B|321:104|327:68|347:41,1,90.0000034332277,4|0,1:0|0:0,0:0:0:0:
410,1,63342,2,0,B|456:-7|499:24|508:67,1,120,4|0,3:0|0:0,0:0:0:0:
467,133,63756,2,0,L|473:183,1,40,2|0,1:0|0:0,0:0:0:0:
390,194,63963,2,0,L|396:244,1,40,,,0:0:0:0:
322,295,64169,2,0,B|338:305|356:307|373:303,1,40,,,0:0:0:0:
470,272,64376,2,0,B|488:275|506:271|520:262,1,40,0|0,1:0|0:0,0:0:0:0:
475,193,64583,6,0,B|419:188|371:236|379:299|417:332,1,191.999994140625,6|0,1:0|1:0,0:0:0:0:
470,272,65204,1,0,0:0:0:0:
308,212,65411,1,6,1:0:0:0:
273,195,65514,1,8,3:0:0:0:
235,187,65617,1,4,3:0:0:0:
197,188,65721,1,4,3:0:0:0:
160,197,65824,5,6,1:0:0:0:
125,214,65928,1,2,1:0:0:0:
96,238,66031,1,0,0:0:0:0:
72,268,66135,1,2,1:0:0:0:
58,304,66238,6,0,B|68:263|66:223|56:186,1,95.9999970703126,4|0,0:0|0:0,0:0:0:0:
160,197,66652,2,0,B|160:137|137:82,1,95.9999970703126,,,0:0:0:0:
54,19,67066,1,0,1:0:0:0:
218,61,67273,1,0,0:0:0:0:
305,250,67480,1,0,0:0:0:0:
308,212,67583,1,0,0:0:0:0:
311,174,67686,1,0,0:0:0:0:
313,135,67790,1,0,0:0:0:0:
317,96,67894,6,0,B|352:83|388:86|418:101,1,95.9999970703126,4|0,0:0|0:0,0:0:0:0:
447,10,68307,2,0,B|482:25|503:57|506:92,1,95.9999970703126,,,0:0:0:0:
421,239,68721,1,0,1:0:0:0:
229,295,68928,2,0,B|221:278|219:259|221:242,1,47.9999985351563,8|8,3:0|3:0,0:0:0:0:
125,242,69135,2,0,B|123:223|127:205|135:189,1,47.9999985351563,8|0,3:0|0:0,0:0:0:0:
43,161,69342,2,0,B|48:143|57:127|70:116,1,47.9999985351563,4|0,3:0|0:0,0:0:0:0:
131,79,69549,6,0,B|164:97|203:89|227:65,1,95.9999970703126,4|0,0:0|0:0,0:0:0:0:
411,50,69963,2,0,B|381:33|346:38|320:57,1,95.9999970703126,,,0:0:0:0:
207,171,70376,1,0,1:0:0:0:
169,1,70583,1,0,0:0:0:0:
304,140,70790,2,0,L|355:144,1,47.9999985351563,,,0:0:0:0:
273,61,70997,2,0,L|323:56,1,47.9999985351563,,,0:0:0:0:
430,78,71204,2,0,B|455:106|461:145|448:177,1,95.9999970703126,4|0,0:0|0:0,0:0:0:0:
398,333,71618,2,0,B|372:305|367:266|380:234,1,95.9999970703126,,,0:0:0:0:
496,257,72032,6,0,B|483:268|467:272|452:270,1,47.9999985351563,2|0,0:0|0:0,0:0:0:0:
332,182,72238,2,0,B|345:171|361:166|376:168,1,47.9999985351563,2|0,0:0|0:0,0:0:0:0:
298,255,72445,2,0,B|267:271|233:272|203:261,1,95.9999970703126,2|2,1:0|1:0,0:0:0:0:
88,220,72859,5,4,0:0:0:0:
63,190,72962,1,0,0:0:0:0:
49,154,73065,1,0,0:0:0:0:
44,116,73169,1,0,0:0:0:0:
48,77,73273,2,0,L|53:27,1,47.9999985351563,0|0,1:0|0:0,0:0:0:0:
140,105,73480,2,0,L|145:55,1,47.9999985351563,,,0:0:0:0:
221,145,73687,5,0,1:0:0:0:
259,147,73790,1,0,0:0:0:0:
298,146,73893,1,0,0:0:0:0:
336,142,73997,1,0,0:0:0:0:
373,135,74100,2,0,L|367:182,1,47.9999985351563,0|0,1:0|0:0,0:0:0:0:
465,163,74307,2,0,L|459:210,1,47.9999985351563,,,0:0:0:0:
467,315,74514,5,4,0:0:0:0:
430,302,74617,1,0,0:0:0:0:
392,301,74720,1,0,0:0:0:0:
356,312,74824,1,0,0:0:0:0:
324,334,74928,2,0,B|305:342|285:342|268:335,1,47.9999985351563,0|0,1:0|0:0,0:0:0:0:
183,342,75135,2,0,B|163:339|145:329|134:314,1,47.9999985351563,,,0:0:0:0:
59,253,75342,5,0,1:0:0:0:
37,222,75445,1,0,0:0:0:0:
29,184,75548,1,0,0:0:0:0:
36,146,75652,1,0,0:0:0:0:
58,114,75756,2,0,B|74:99|82:79|81:59,1,47.9999985351563,0|0,1:0|0:0,0:0:0:0:
177,78,75963,2,0,B|183:57|179:35|169:18,1,47.9999985351563,,,0:0:0:0:
146,157,76169,5,0,3:0:0:0:
264,225,76376,1,0,3:0:0:0:
171,249,76583,1,0,3:0:0:0:
240,134,76790,1,0,3:0:0:0:
147,288,76997,5,0,1:0:0:0:
264,93,77204,1,0,0:0:0:0:
363,242,77411,1,0,0:0:0:0:
364,203,77514,1,0,0:0:0:0:
365,165,77617,1,0,0:0:0:0:
367,127,77721,1,0,0:0:0:0:
368,88,77825,2,0,B|401:83|433:95|454:118,1,80,,,0:0:0:0:
387,10,78238,2,0,B|354:3|321:15|301:40,1,80,,,0:0:0:0:
214,166,78652,6,0,B|208:188|210:211|218:231,1,47.9999985351563,2|0,0:0|0:0,0:0:0:0:
261,326,78859,2,0,B|267:304|265:281|257:261,1,47.9999985351563,2|0,0:0|0:0,0:0:0:0:
138,218,79066,6,0,B|115:216|94:226|81:242,1,60.0000022888184,2|0,1:0|0:0,0:0:0:0:
66,352,79273,2,0,B|88:353|108:342|121:326,1,60.0000022888184,2|0,1:0|0:0,0:0:0:0:
194,270,79480,6,0,B|218:242|219:203|202:174,1,90.0000034332277,4|0,1:0|0:0,0:0:0:0:
147,137,79894,1,0,1:0:0:0:
235,44,80100,2,0,L|302:39,1,40,0|0,1:0|1:0,0:0:0:0:
350,75,80307,2,0,L|417:70,1,40,0|0,1:0|1:0,0:0:0:0:
471,90,80514,1,0,1:0:0:0:
418,178,80721,6,0,B|398:210|406:251|433:274,1,90.0000034332277,4|0,3:0|0:0,0:0:0:0:
481,217,81135,6,0,B|418:204|357:222,1,120,4|0,0:0|0:0,0:0:0:0:
295,276,81549,2,0,B|293:301|298:325,1,40,4|0,3:0|0:0,0:0:0:0:
216,236,81756,2,0,B|211:261|214:285,1,40,4|0,3:0|0:0,0:0:0:0:
289,187,81963,2,0,B|291:162|286:138,1,40,4|0,3:0|0:0,0:0:0:0:
362,113,82170,2,0,B|356:88|346:66,1,40,4|0,3:0|0:0,0:0:0:0:
280,14,82376,1,4,3:0:0:0:
248,8,82479,1,4,3:0:0:0:
216,8,82582,1,4,3:0:0:0:
184,13,82686,1,4,3:0:0:0:
154,23,82790,6,0,B|139:56|104:72|71:64,1,90.0000034332277,4|0,0:0|0:0,0:0:0:0:
4,36,83204,1,0,1:0:0:0:
113,143,83411,2,0,B|119:168|114:192,1,40,0|0,1:0|1:0,0:0:0:0:
91,260,83618,2,0,B|83:284|67:303,1,40,0|0,1:0|1:0,0:0:0:0:
17,357,83825,1,0,1:0:0:0:
206,264,84032,2,0,B|200:313|209:361,1,80,4|0,3:0|0:0,0:0:0:0:
192,178,84445,6,0,B|227:171|261:187|279:215,1,90.0000034332277,4|0,1:0|0:0,0:0:0:0:
305,272,84859,2,0,L|311:173,1,90.0000034332277,0|0,1:0|0:0,0:0:0:0:
329,111,85273,2,0,B|357:88|397:89|423:111,1,90.0000034332277,0|0,1:0|0:0,0:0:0:0:
450,166,85687,2,0,B|430:129|438:85|465:57,1,95.9999970703126,0|0,1:0|0:0,0:0:0:0:
505,228,86100,6,0,B|479:251|444:255|415:242,1,90.0000034332277,4|0,1:0|0:0,0:0:0:0:
346,207,86514,1,0,1:0:0:0:
196,159,86721,2,0,B|178:155|161:156|145:162,1,40,0|0,1:0|1:0,0:0:0:0:
138,63,86928,2,0,B|120:64|104:72|92:82,1,40,0|0,1:0|1:0,0:0:0:0:
31,123,87135,1,0,1:0:0:0:
92,256,87342,1,0,1:0:0:0:
124,256,87445,1,0,1:0:0:0:
156,257,87548,1,0,1:0:0:0:
187,257,87652,1,0,1:0:0:0:
219,257,87756,6,0,B|238:226|240:190|228:159,1,90.0000034332277,4|0,3:0|0:0,0:0:0:0:
199,96,88169,2,0,B|192:79|193:61|199:46,1,40,4|0,3:0|0:0,0:0:0:0:
284,108,88376,2,0,B|275:92|274:74|279:58,1,40,4|0,3:0|0:0,0:0:0:0:
365,117,88583,1,4,3:0:0:0:
365,117,88687,1,4,3:0:0:0:
365,117,88790,2,0,B|354:102|352:83|356:67,1,40,8|0,3:0|0:0,0:0:0:0:
433,83,88997,2,0,B|452:113|445:150|421:173,1,80,8|0,3:0|0:0,0:0:0:0:
327,192,89411,6,0,B|310:228|307:267|317:303,1,90.0000034332277,4|0,0:0|0:0,0:0:0:0:
349,349,89825,1,0,1:0:0:0:
205,294,90032,2,0,L|144:295,1,40,0|0,1:0|1:0,0:0:0:0:
96,248,90238,2,0,L|35:249,1,40,0|0,1:0|1:0,0:0:0:0:
0,192,90445,1,0,1:0:0:0:
202,105,90652,2,0,B|216:133|220:164|216:193,1,80,4|0,3:0|0:0,0:0:0:0:
153,38,91066,6,0,B|180:14|221:16|246:41,1,80,4|0,0:0|0:0,0:0:0:0:
256,42,91376,1,0,0:0:0:0:
256,42,91480,2,0,B|285:57|318:54|343:38,1,80,0|0,1:0|0:0,0:0:0:0:
454,9,91894,5,2,1:0:0:0:
454,9,91997,1,0,1:0:0:0:
454,9,92101,2,0,L|464:68,1,40,0|2,0:0|1:0,0:0:0:0:
420,136,92308,2,0,B|410:169|411:201|419:231,1,95.9999970703126,0|2,0:0|1:0,0:0:0:0:
460,300,92721,6,0,B|429:318|392:313|367:291,1,90.0000034332277,4|0,1:0|0:0,0:0:0:0:
303,327,93135,2,0,L|296:198,1,120,4|0,3:0|0:0,0:0:0:0:
256,132,93549,2,0,B|239:124|220:122|204:127,1,40,0|0,1:0|0:0,0:0:0:0:
157,41,93756,2,0,B|138:38|120:44|106:54,1,40,0|0,1:0|0:0,0:0:0:0:
26,56,93963,6,0,B|75:48|122:76|140:122|132:165,1,180.000006866455,2|0,1:0|0:0,0:0:0:0:
96,236,94376,6,0,B|83:271|88:308|105:337,1,90.0000034332277,4|0,0:0|0:0,0:0:0:0:
179,327,94790,2,0,B|219:339|219:339|279:323,1,80,2|0,1:0|0:0,0:0:0:0:
460,310,95204,2,0,B|433:299|405:300|379:308,1,80,0|0,1:0|0:0,0:0:0:0:
347,329,95514,1,0,0:0:0:0:
348,297,95617,1,0,1:0:0:0:
349,265,95720,1,0,1:0:0:0:
351,233,95824,1,0,0:0:0:0:
353,201,95928,1,0,1:0:0:0:
354,170,96032,6,0,B|324:181|292:176|267:160,1,90.0000034332277,4|0,1:0|0:0,0:0:0:0:
201,194,96445,2,0,B|184:160|192:119|220:93|252:86,1,120,4|0,3:0|0:0,0:0:0:0:
311,55,96859,2,0,B|317:68|319:82|318:95,1,40,0|0,1:0|0:0,0:0:0:0:
397,47,97066,2,0,B|397:33|393:20|386:10,1,40,0|0,1:0|0:0,0:0:0:0:
475,56,97273,2,0,B|475:70|472:84|466:96,1,40,0|0,1:0|1:0,0:0:0:0:
466,94,97480,1,0,1:0:0:0:
466,94,97583,1,0,1:0:0:0:
416,160,97687,6,0,B|392:197|396:243|420:275,1,120,4|0,0:0|0:0,0:0:0:0:
440,306,98100,2,0,B|399:292|357:293|319:306,1,120,,,0:0:0:0:
322,305,98514,1,0,1:0:0:0:
285,290,98617,1,0,0:0:0:0:
259,260,98720,1,0,0:0:0:0:
251,221,98824,1,0,0:0:0:0:
262,183,98928,6,0,B|221:211|165:202|133:162|131:118,1,180.000006866455,4|0,0:0|0:0,0:0:0:0:
170,40,99342,6,0,B|198:56|214:84|215:114,1,90.0000034332277,4|0,1:0|0:0,0:0:0:0:
174,189,99756,2,0,B|132:214|79:198|57:156,1,120,4|0,3:0|0:0,0:0:0:0:
29,98,100169,2,0,B|24:80|24:63|28:46,1,40,2|0,0:0|0:0,0:0:0:0:
118,59,100376,2,0,B|119:40|125:24|134:9,1,40,2|0,0:0|0:0,0:0:0:0:
249,41,100583,6,0,B|271:34|293:34|313:40,1,60.0000022888184,2|0,1:0|0:0,0:0:0:0:
402,71,100790,2,0,B|423:79|439:93|450:110,1,60.0000022888184,2|0,1:0|0:0,0:0:0:0:
489,175,100997,6,0,B|500:212|496:250|481:282,1,90.0000034332277,4|0,0:0|0:0,0:0:0:0:
436,339,101411,2,0,L|386:325,1,40,0|0,1:0|1:0,0:0:0:0:
314,350,101618,2,0,B|307:332|309:312|317:296,1,40,0|0,1:0|1:0,0:0:0:0:
244,250,101825,2,0,B|249:230|264:216|281:210,1,40,0|0,1:0|0:0,0:0:0:0:
245,122,102032,1,0,0:0:0:0:
276,121,102135,1,0,0:0:0:0:
307,131,102238,1,0,1:0:0:0:
333,150,102342,1,0,0:0:0:0:
351,175,102445,1,0,0:0:0:0:
361,206,102549,1,0,0:0:0:0:
362,238,102652,6,0,B|340:266|341:304|363:329,1,90.0000034332277,4|0,1:0|0:0,0:0:0:0:
416,284,103066,2,0,B|349:268|282:284,1,120,4|0,3:0|0:0,0:0:0:0:
230,327,103480,2,0,L|183:322,1,40,2|0,1:0|0:0,0:0:0:0:
109,310,103687,2,0,L|62:315,1,40,,,0:0:0:0:
12,237,103894,2,0,L|51:239,1,40,,,0:0:0:0:
104,158,104100,2,0,L|56:162,1,40,0|0,1:0|0:0,0:0:0:0:
163,76,104307,6,0,B|209:108|223:169|198:221|156:245,1,191.999994140625,6|0,1:0|0:0,0:0:0:0:
81,47,104928,6,0,L|350:39,1,240.000009155274,6|0,1:0|0:0,0:0:0:0:
295,169,105549,6,0,L|444:164,1,140.000001335144,6|2,1:0|1:0,0:0:0:0:
256,192,105963,12,0,109273,0:0:0:0:
232,320,119204,6,0,L|324:316,1,80,4|0,0:0|0:0,0:0:0:0:
456,256,119618,2,0,L|364:252,1,80,,,0:0:0:0:
188,216,120032,2,0,L|280:212,1,80,8|0,0:0|0:0,0:0:0:0:
384,160,120446,1,0,0:0:0:0:
394,129,120549,1,0,0:0:0:0:
393,98,120652,1,0,0:0:0:0:
381,68,120756,1,0,0:0:0:0:
360,45,120859,6,0,B|331:37|301:39|275:48,1,80,,,0:0:0:0:
168,84,121273,2,0,B|141:92|113:92|88:85,1,80,,,0:0:0:0:
204,164,121687,2,0,B|175:179|143:182|113:176,1,80,8|8,0:0|3:0,0:0:0:0:
32,148,122100,1,8,3:0:0:0:
48,244,122307,1,4,3:0:0:0:
149,343,122514,6,0,B|147:292|152:242,1,80,4|0,0:0|0:0,0:0:0:0:
238,151,122928,2,0,B|235:191|236:231,1,80,,,0:0:0:0:
328,351,123342,2,0,B|326:300|331:250,1,80,8|0,0:0|0:0,0:0:0:0:
361,158,123756,1,0,0:0:0:0:
392,151,123859,1,0,0:0:0:0:
423,155,123962,1,0,0:0:0:0:
451,170,124066,1,0,0:0:0:0:
473,193,124169,6,0,B|471:142|476:92,1,80,,,0:0:0:0:
411,40,124583,1,0,0:0:0:0:
317,61,124790,1,0,0:0:0:0:
221,35,124997,2,0,B|210:83|206:131,1,80,8|8,0:0|3:0,0:0:0:0:
207,113,125307,1,8,3:0:0:0:
207,113,125411,1,8,3:0:0:0:
273,196,125618,1,4,3:0:0:0:
357,319,125825,6,0,B|360:287|354:257|340:231,1,80,4|0,0:0|0:0,0:0:0:0:
211,245,126238,2,0,B|237:234|258:216|274:195,1,80,,,0:0:0:0:
333,81,126652,2,0,B|344:107|348:134|345:160,1,80,8|0,0:0|0:0,0:0:0:0:
415,41,127066,1,0,0:0:0:0:
423,71,127169,1,0,0:0:0:0:
429,103,127272,1,0,0:0:0:0:
432,134,127376,1,0,0:0:0:0:
433,165,127480,6,0,B|430:197|437:226|450:252,1,80,,,0:0:0:0:
344,240,127894,2,0,B|348:271|362:298|381:319,1,80,,,0:0:0:0:
273,196,128307,2,0,B|244:184|214:182|186:188,1,80,8|8,0:0|3:0,0:0:0:0:
107,228,128721,1,8,3:0:0:0:
42,157,128928,1,4,3:0:0:0:
126,35,129135,6,0,B|130:81|126:126,1,80,4|0,0:0|0:0,0:0:0:0:
216,163,129549,2,0,B|220:122|217:83,1,80,,,0:0:0:0:
303,33,129963,2,0,B|311:79|310:123,1,80,8|0,0:0|0:0,0:0:0:0:
302,219,130376,1,0,0:0:0:0:
295,250,130479,1,0,0:0:0:0:
301,281,130582,1,0,0:0:0:0:
317,308,130686,1,0,0:0:0:0:
343,326,130790,6,0,B|387:332|429:326,1,80,,,0:0:0:0:
471,243,131204,1,0,0:0:0:0:
391,189,131411,1,0,0:0:0:0:
475,143,131618,2,0,B|481:110|475:77,1,40,2|0,0:0|0:0,0:0:0:0:
412,30,131825,2,0,B|412:50|408:69,1,40,2|0,0:0|0:0,0:0:0:0:
239,47,132032,2,0,B|272:34|307:33|338:43,1,95.9999970703126,2|2,1:0|1:0,0:0:0:0:
201,123,132445,6,0,B|150:152|90:148|46:118,1,143.999995605469,4|0,0:0|1:0,0:0:0:0:
0,82,132859,1,8,1:0:0:0:
110,234,133066,1,0,0:0:0:0:
288,168,133273,2,0,B|335:202|398:199|443:164|462:117,1,191.999994140625,0|8,0:0|1:0,0:0:0:0:
225,319,134100,6,0,B|172:306|119:311|74:332,1,143.999995605469,4|0,0:0|1:0,0:0:0:0:
12,357,134514,1,8,1:0:0:0:
52,164,134721,1,0,0:0:0:0:
250,100,134928,5,0,0:0:0:0:
38,61,135135,1,0,0:0:0:0:
184,189,135342,1,8,1:0:0:0:
184,189,135549,1,0,0:0:0:0:
366,85,135756,6,0,B|352:158|353:229,1,143.999995605469,4|0,0:0|1:0,0:0:0:0:
369,302,136169,2,0,B|400:321|439:315|463:292,1,95.9999970703126,8|0,1:0|0:0,0:0:0:0:
271,203,136583,2,0,B|206:176|136:187|83:224,1,191.999994140625,0|8,0:0|1:0,0:0:0:0:
352,228,137411,6,0,B|353:155|366:84,1,143.999995605469,4|0,0:0|1:0,0:0:0:0:
413,23,137825,1,8,1:0:0:0:
475,146,138032,1,0,0:0:0:0:
270,87,138238,2,0,B|218:78|168:88,1,95.9999970703126,,,0:0:0:0:
60,223,138652,2,0,L|66:270,1,47.9999985351563,8|0,1:0|0:0,0:0:0:0:
138,244,138859,2,0,L|144:291,1,47.9999985351563,8|0,1:0|0:0,0:0:0:0:
199,346,139066,6,0,B|236:359|277:341|294:304|287:269,1,143.999995605469,4|0,0:0|1:0,0:0:0:0:
217,232,139480,2,0,B|197:203|199:167|218:141,1,95.9999970703126,8|0,1:0|0:0,0:0:0:0:
355,98,139894,2,0,B|293:134|216:116|175:62,1,191.999994140625,0|8,0:0|1:0,0:0:0:0:
0,114,140721,6,0,B|50:95|104:107|140:140,1,143.999995605469,4|0,0:0|1:0,0:0:0:0:
181,198,141135,2,0,L|178:302,1,95.9999970703126,8|0,1:0|0:0,0:0:0:0:
254,154,141549,1,0,0:0:0:0:
58,261,141756,1,0,0:0:0:0:
251,334,141963,1,8,1:0:0:0:
251,334,142169,1,0,0:0:0:0:
344,171,142376,6,0,B|375:140|422:134|460:154|481:186,1,143.999995605469,4|0,0:0|1:0,0:0:0:0:
487,251,142790,2,0,B|479:303|486:354,1,95.9999970703126,8|0,1:0|0:0,0:0:0:0:
407,229,143204,2,0,B|396:280|400:331,1,95.9999970703126,,,0:0:0:0:
344,171,143618,1,8,1:0:0:0:
181,198,143825,1,0,0:0:0:0:
291,252,144032,6,0,L|300:96,1,143.999995605469,4|0,0:0|1:0,0:0:0:0:
284,33,144445,2,0,B|254:12|216:12|187:30,1,95.9999970703126,8|0,1:0|0:0,0:0:0:0:
51,84,144859,2,0,B|33:91|14:91|-4:87,1,47.9999985351563,2|0,0:0|0:0,0:0:0:0:
88,153,145066,2,0,B|71:162|52:166|34:165,1,47.9999985351563,2|0,0:0|0:0,0:0:0:0:
144,97,145273,2,0,B|133:161|146:224,1,120.000004577637,2|0,1:0|0:0,0:0:0:0:
345,334,145687,5,0,3:0:0:0:
370,308,146307,5,0,3:0:0:0:
423,146,146721,5,0,3:0:0:0:
301,222,146928,1,8,1:0:0:0:
302,183,147031,1,0,0:0:0:0:
303,145,147134,1,0,0:0:0:0:
305,106,147238,1,0,0:0:0:0:
306,68,147342,6,0,B|258:46|205:55|168:85,1,143.999995605469,4|0,0:0|1:0,0:0:0:0:
117,132,147756,2,0,B|85:154|46:156|13:142,1,95.9999970703126,8|0,1:0|0:0,0:0:0:0:
60,38,148169,1,0,0:0:0:0:
199,221,148376,1,0,0:0:0:0:
351,122,148583,1,8,1:0:0:0:
351,122,148790,1,0,0:0:0:0:
377,302,148997,6,0,B|334:339|274:341|229:314,1,143.999995605469,4|0,0:0|1:0,0:0:0:0:
178,285,149411,2,0,B|181:230|183:175,1,95.9999970703126,8|0,1:0|0:0,0:0:0:0:
334,99,149825,2,0,B|331:154|329:209,1,95.9999970703126,,,0:0:0:0:
188,115,150238,2,0,L|191:53,1,47.9999985351563,8|0,1:0|0:0,0:0:0:0:
264,45,150445,2,0,L|261:107,1,47.9999985351563,,,0:0:0:0:
247,168,150652,6,0,B|219:201|172:207|134:186|118:152,1,143.999995605469,4|0,0:0|1:0,0:0:0:0:
44,164,151066,2,0,L|49:68,1,95.9999970703126,8|0,1:0|0:0,0:0:0:0:
85,231,151480,1,0,0:0:0:0:
149,19,151687,1,0,0:0:0:0:
309,113,151894,1,8,1:0:0:0:
309,113,152100,1,8,1:0:0:0:
153,271,152307,6,0,B|203:251|256:253|300:273,1,143.999995605469,4|0,0:0|1:0,0:0:0:0:
346,326,152721,2,0,B|372:299|376:260|359:230,1,95.9999970703126,8|0,1:0|0:0,0:0:0:0:
316,102,153135,2,0,B|290:129|286:168|303:198,1,95.9999970703126,,,0:0:0:0:
422,47,153549,2,0,L|374:44,1,47.9999985351563,8|0,1:0|0:0,0:0:0:0:
302,23,153756,2,0,L|254:26,1,47.9999985351563,,,0:0:0:0:
180,49,153963,6,0,B|131:29|79:36|38:63,1,143.999995605469,4|0,0:0|1:0,0:0:0:0:
4,127,154376,2,0,L|8:226,1,95.9999970703126,8|0,1:0|0:0,0:0:0:0:
67,342,154790,1,0,0:0:0:0:
217,222,154997,1,0,0:0:0:0:
346,326,155204,1,8,1:0:0:0:
346,326,155411,1,0,0:0:0:0:
482,246,155618,6,0,B|498:197|494:147|477:104,1,143.999995605469,4|0,0:0|1:0,0:0:0:0:
422,47,156032,2,0,B|389:33|354:36|326:52,1,95.9999970703126,8|0,1:0|0:0,0:0:0:0:
233,123,156445,2,0,B|203:139|169:138|140:126,1,95.9999970703126,,,0:0:0:0:
68,87,156859,2,0,L|61:149,1,47.9999985351563,8|0,1:0|0:0,0:0:0:0:
38,208,157066,2,0,L|45:270,1,47.9999985351563,0|0,1:0|0:0,0:0:0:0:
92,315,157273,6,0,B|139:274|208:277|251:317,1,143.999995605469,4|0,0:0|1:0,0:0:0:0:
297,330,157687,2,0,B|331:348|370:342|396:319,1,95.9999970703126,8|0,1:0|0:0,0:0:0:0:
476,211,158100,1,0,0:0:0:0:
436,72,158307,1,0,0:0:0:0:
287,34,158514,2,0,B|282:53|283:72|288:89,1,47.9999985351563,0|0,1:0|1:0,0:0:0:0:
330,200,158721,2,0,B|335:181|334:162|329:145,1,47.9999985351563,0|0,1:0|1:0,0:0:0:0:
204,80,158928,6,0,B|124:64|124:108|36:88|36:88|76:96|104:124,1,240,8|8,3:0|3:0,0:0:0:0:
268,24,160583,6,0,B|308:96|267:150|228:164|228:164|272:148|316:184,1,240,8|8,3:0|3:0,0:0:0:0:
255,245,162238,6,0,B|201:257|166:238|134:203|135:151|161:114|161:114|145:96|141:71,1,240,8|8,3:0|3:0,0:0:0:0:
61,202,163894,6,0,B|93:203|111:220|120:246|120:246|120:217|138:175|169:165|169:165|211:175|251:157,1,240,8|8,3:0|3:0,0:0:0:0:
304,309,165549,6,0,L|437:315,1,120,4|0,3:0|0:0,0:0:0:0:
497,343,165963,2,0,L|397:348,1,80,4|0,3:0|0:0,0:0:0:0:
236,353,166376,2,0,B|212:313|226:261|264:238,1,120,4|0,3:0|0:0,0:0:0:0:
329,212,166790,2,0,L|249:207,1,80,4|0,3:0|0:0,0:0:0:0:
136,150,167204,6,0,B|146:194|140:237|121:273,1,120,4|0,3:0|0:0,0:0:0:0:
83,332,167618,2,0,L|71:233,1,80,4|0,3:0|0:0,0:0:0:0:
65,108,168032,2,0,B|88:64|145:52|184:82,1,120,4|0,3:0|0:0,0:0:0:0:
220,127,168445,2,0,L|211:30,1,80,4|0,3:0|0:0,0:0:0:0:
248,247,168859,6,0,L|251:187,1,40,0|0,3:0|0:0,0:0:0:0:
331,194,169066,2,0,L|334:134,1,40,0|0,3:0|0:0,0:0:0:0:
220,127,169273,2,0,L|223:67,1,40,0|0,3:0|0:0,0:0:0:0:
304,75,169480,2,0,L|307:15,1,40,0|0,3:0|0:0,0:0:0:0:
435,118,169687,5,0,3:0:0:0:
434,137,169790,1,0,3:0:0:0:
433,157,169893,1,0,3:0:0:0:
433,177,169997,1,0,3:0:0:0:
430,208,170100,5,0,3:0:0:0:
416,245,170203,1,0,3:0:0:0:
385,275,170306,1,0,3:0:0:0:
343,299,170410,1,0,3:0:0:0:
249,297,170514,6,0,B|185:250|95:271|58:341,1,180.000006866455,2|0,0:0|0:0,0:0:0:0:
185,168,170928,2,0,B|243:141|271:78|258:20,1,180.000006866455,2|0,0:0|0:0,0:0:0:0:
320,179,171342,2,0,B|313:243|353:299|410:317,1,180.000006866455,2|0,0:0|0:0,0:0:0:0:
249,216,171756,1,4,1:0:0:0:
446,59,172169,6,0,B|392:28|328:35|282:68,1,160.000006103516,4|0,1:0|0:0,0:0:0:0:
228,125,172583,2,0,B|218:173|219:220,1,80.0000030517579,0|0,1:0|1:0,0:0:0:0:
284,298,172859,1,0,1:0:0:0:
371,250,172997,6,0,L|465:243,2,80.0000030517579,8|8|4,3:0|3:0|3:0,0:0:0:0:
284,298,173411,2,0,L|204:303,2,80.0000030517579,4|4|8,3:0|3:0|3:0,0:0:0:0:
249,216,173825,6,0,B|272:183|249:136|201:132|173:160|172:190,1,160.000006103516,4|0,1:0|0:0,0:0:0:0:
180,325,174238,1,0,1:0:0:0:
96,246,174376,1,4,3:0:0:0:
185,111,174514,1,4,3:0:0:0:
287,178,174652,6,0,B|329:198|376:190|408:162,1,120.000004577637,4|0,0:0|0:0,0:0:0:0:
437,103,174928,2,0,B|426:151|438:199|465:235,1,120.000004577637,2|0,1:0|0:0,0:0:0:0:
500,279,175204,2,0,B|458:259|411:267|379:295,1,120.000004577637,4|0,0:0|0:0,0:0:0:0:
314,321,175480,6,0,B|270:355|207:347|171:300|171:251,1,200.000007629395,4|0,1:0|0:0,0:0:0:0:
195,180,175894,2,0,B|236:139|308:140|333:183|339:193|339:193|341:175|351:157,1,200.000007629395,4|0,3:0|0:0,0:0:0:0:
384,82,176307,6,0,B|428:72|471:77,2,80.0000030517579,0|0|0,1:0|1:0|1:0,0:0:0:0:
276,121,176721,5,2,1:0:0:0:
263,247,176859,1,2,1:0:0:0:
188,84,176997,1,2,1:0:0:0:
91,217,177135,6,0,B|103:131|99:47,1,160.000006103516,4|0,0:0|0:0,0:0:0:0:
183,168,177549,1,0,1:0:0:0:
62,240,177687,1,0,0:0:0:0:
165,282,177825,1,0,0:0:0:0:
183,168,177963,6,0,B|190:82|182:-2,1,160.000006103516,4|0,0:0|0:0,0:0:0:0:
263,200,178376,1,0,1:0:0:0:
108,129,178514,1,0,1:0:0:0:
260,59,178652,1,0,1:0:0:0:
260,221,178790,6,0,B|304:178|373:178|417:216,1,160.000006103516,4|0,1:0|0:0,0:0:0:0:
490,311,179204,2,0,L|496:222,1,80.0000030517579,0|0,1:0|1:0,0:0:0:0:
407,117,179480,1,0,1:0:0:0:
340,279,179618,6,0,L|345:358,2,80.0000030517579,8|8|4,3:0|3:0|3:0,0:0:0:0:
312,103,180032,2,0,L|317:23,2,80.0000030517579,4|4|8,3:0|3:0|3:0,0:0:0:0:
155,147,180445,6,0,B|105:177|43:163|10:120,1,160.000006103516,4|0,1:0|0:0,0:0:0:0:
99,48,180859,1,0,1:0:0:0:
155,147,180997,1,4,3:0:0:0:
210,244,181135,1,4,3:0:0:0:
277,154,181273,2,0,B|327:124|389:138|422:181,2,160.000006103516,4|2|4,0:0|1:0|0:0,0:0:0:0:
449,293,182100,6,0,L|460:74,1,200.000007629395,4|0,1:0|0:0,0:0:0:0:
430,44,182514,2,0,B|416:-6|335:-13|309:70|361:110|402:96,1,200.000007629395,4|0,3:0|0:0,0:0:0:0:
459,93,182928,5,2,1:0:0:0:
454,193,183066,1,2,1:0:0:0:
449,293,183203,1,2,1:0:0:0:
347,228,183342,1,2,1:0:0:0:
464,183,183480,1,2,1:0:0:0:
443,308,183618,1,2,1:0:0:0:
336,240,183756,6,0,L|164:248,1,160.000006103516,4|0,0:0|0:0,0:0:0:0:
88,300,184169,2,0,B|74:271|72:240|80:212,1,80.0000030517579,2|0,1:0|0:0,0:0:0:0:
144,144,184445,1,0,0:0:0:0:
122,37,184583,6,0,B|160:68|211:69|249:46,1,120.000004577637,4|0,0:0|0:0,0:0:0:0:
305,20,184859,1,4,3:0:0:0:
346,148,184997,1,0,1:0:0:0:
386,272,185135,1,0,1:0:0:0:
484,186,185273,1,0,1:0:0:0:
504,324,185411,6,0,B|503:275|458:238|404:248|377:282,1,160.000006103516,4|0,1:0|0:0,0:0:0:0:
297,334,185825,6,0,B|286:321|282:306|283:291,1,40.000001525879,2|0,0:0|0:0,0:0:0:0:
192,304,185963,2,0,B|186:288|187:272|194:258,1,40.000001525879,2|0,0:0|0:0,0:0:0:0:
104,248,186100,2,0,B|103:231|110:216|121:205,1,40.000001525879,2|0,0:0|0:0,0:0:0:0:
60,144,186238,6,0,B|101:173|154:170|193:142|211:103,1,160.000006103516,4|0,1:0|0:0,0:0:0:0:
293,112,186652,6,0,B|293:98|288:85|280:76,1,40.000001525879,2|0,0:0|0:0,0:0:0:0:
380,80,186790,2,0,B|385:66|384:52|379:40,1,40.000001525879,2|0,0:0|0:0,0:0:0:0:
476,72,186928,2,0,B|483:59|484:45|481:32,1,40.000001525879,2|0,0:0|0:0,0:0:0:0:
448,156,187066,6,0,B|417:211|423:275|455:323,1,160.000006103516,4|0,1:0|0:0,0:0:0:0:
328,340,187480,2,0,L|340:236,1,80.0000030517579,0|0,1:0|0:0,0:0:0:0:
280,156,187756,1,4,3:0:0:0:
184,56,187894,6,0,L|168:120,1,40.000001525879,2|0,0:0|0:0,0:0:0:0:
104,32,188032,2,0,L|99:97,1,40.000001525879,2|0,0:0|0:0,0:0:0:0:
20,32,188169,2,0,L|26:97,1,40.000001525879,2|0,0:0|0:0,0:0:0:0:
64,140,188307,2,0,B|74:175|73:210|63:241,1,80.0000030517579,0|0,1:0|0:0,0:0:0:0:
12,328,188583,1,0,0:0:0:0:
169,221,188721,6,0,B|209:228|225:283|183:318|142:308|127:280,1,160.000006103516,4|0,1:0|0:0,0:0:0:0:
249,169,189135,2,0,B|276:193|289:226|288:259,1,80.0000030517579,0|0,1:0|0:0,0:0:0:0:
304,340,189411,1,0,0:0:0:0:
368,260,189549,6,0,B|397:226|445:221|480:243,1,120.000004577637,4|0,0:0|0:0,0:0:0:0:
506,308,189825,2,0,L|512:147,1,160.000006103516,4|0,3:0|1:0,0:0:0:0:
472,36,190238,1,0,1:0:0:0:
368,96,190376,2,0,B|325:137|262:142|214:116,1,160.000006103516,4|0,1:0|0:0,0:0:0:0:
105,10,190790,5,0,1:0:0:0:
141,137,190928,1,0,1:0:0:0:
232,36,191066,1,0,1:0:0:0:
69,94,191204,5,4,3:0:0:0:
69,94,191342,1,4,3:0:0:0:
69,94,191480,1,4,3:0:0:0:
145,150,191618,6,0,B|140:182|141:214,1,40.000001525879,8|0,3:0|0:0,0:0:0:0:
194,245,191756,2,0,B|189:277|190:309,1,40.000001525879,8|0,3:0|0:0,0:0:0:0:
255,326,191894,2,0,B|250:358|251:390,1,40.000001525879,8|0,3:0|0:0,0:0:0:0:
307,268,192032,6,0,B|353:229|417:227|466:259|489:305,1,200.000007629395,4|0,1:0|0:0,0:0:0:0:
394,358,192445,6,0,B|387:331|389:303,1,40.000001525879,2|0,0:0|0:0,0:0:0:0:
380,226,192583,2,0,B|376:198|380:171,1,40.000001525879,2|0,0:0|0:0,0:0:0:0:
380,106,192721,2,0,B|378:78|384:51,1,40.000001525879,2|0,0:0|0:0,0:0:0:0:
473,13,192859,6,0,B|397:39|320:37|251:13,1,200.000007629395,4|0,1:0|0:0,0:0:0:0:
187,4,193273,6,0,L|195:61,1,40.000001525879,2|0,0:0|0:0,0:0:0:0:
121,80,193411,2,0,L|129:137,1,40.000001525879,2|0,0:0|0:0,0:0:0:0:
54,154,193549,2,0,L|62:211,1,40.000001525879,2|0,0:0|0:0,0:0:0:0:
39,266,193687,6,0,B|61:215|116:189|171:201|205:236,1,200.000007629395,4|0,1:0|0:0,0:0:0:0:
304,145,194100,2,0,B|317:191|312:237,1,80.0000030517579,0|0,1:0|0:0,0:0:0:0:
276,327,194376,1,0,0:0:0:0:
445,340,194514,6,0,L|505:337,1,40.000001525879,2|0,0:0|0:0,0:0:0:0:
423,266,194652,2,0,L|482:257,1,40.000001525879,2|0,0:0|0:0,0:0:0:0:
391,197,194790,2,0,L|449:183,1,40.000001525879,2|0,0:0|0:0,0:0:0:0:
508,194,194928,2,0,B|520:164|518:133|506:106,1,80.0000030517579,0|0,1:0|0:0,0:0:0:0:
473,13,195204,1,0,0:0:0:0:
397,82,195342,6,0,B|343:50|280:50|227:74,1,160.000006103516,4|0,1:0|0:0,0:0:0:0:
126,24,195756,2,0,L|134:116,1,80.0000030517579,0|0,1:0|0:0,0:0:0:0:
214,168,196032,1,0,0:0:0:0:
114,204,196169,2,0,B|139:244|133:293|106:326,1,120.000004577637,4|0,0:0|0:0,0:0:0:0:
46,348,196445,2,0,L|214:354,1,160.000006103516,4|0,3:0|1:0,0:0:0:0:
367,313,196997,6,0,B|326:268|323:205|352:157,1,160.000006103516,4|0,0:0|0:0,0:0:0:0:
319,71,197411,2,0,B|351:59|385:66|410:86,1,80.0000030517579,2|0,1:0|0:0,0:0:0:0:
447,164,197687,1,0,0:0:0:0:
307,227,197825,6,0,L|207:234,2,80.0000030517579,0|0|0,1:0|1:0|1:0,0:0:0:0:
367,313,198238,2,0,L|467:320,2,80.0000030517579,4|4|4,3:0|3:0|3:0,0:0:0:0:
268,321,198652,5,4,0:0:0:0:
437,287,203618,6,0,L|239:296,1,191.999994140625,4|0,0:0|0:0,0:0:0:0:
69,240,204445,2,0,B|62:217|66:193,1,47.9999985351563,2|0,0:0|0:0,0:0:0:0:
148,164,204652,2,0,B|155:187|151:211,1,47.9999985351563,2|0,0:0|0:0,0:0:0:0:
87,113,204859,2,0,B|111:82|153:75|184:94,1,95.9999970703126,2|2,1:0|1:0,0:0:0:0:
249,162,205273,5,4,0:0:0:0:
286,171,205376,1,0,0:0:0:0:
324,167,205479,1,0,0:0:0:0:
358,151,205583,1,0,0:0:0:0:
386,125,205687,2,0,B|391:96|393:67,1,47.9999985351563,0|0,1:0|0:0,0:0:0:0:
469,79,205894,2,0,B|470:49|470:20,1,47.9999985351563,,,0:0:0:0:
461,166,206100,5,0,1:0:0:0:
448,202,206203,1,0,0:0:0:0:
441,239,206306,1,0,0:0:0:0:
442,278,206410,1,0,0:0:0:0:
449,316,206514,2,0,L|395:315,1,47.9999985351563,0|0,1:0|0:0,0:0:0:0:
322,291,206721,2,0,L|268:290,1,47.9999985351563,,,0:0:0:0:
190,341,206928,5,4,0:0:0:0:
152,332,207031,1,0,0:0:0:0:
120,312,207134,1,0,0:0:0:0:
97,282,207238,1,0,0:0:0:0:
85,245,207342,2,0,B|77:212|84:179,1,47.9999985351563,0|0,1:0|0:0,0:0:0:0:
4,199,207549,2,0,B|7:165|24:135,1,47.9999985351563,,,0:0:0:0:
74,69,207756,5,0,1:0:0:0:
111,76,207859,1,0,0:0:0:0:
149,76,207962,1,0,0:0:0:0:
187,69,208066,1,0,0:0:0:0:
223,55,208169,2,0,L|218:117,1,47.9999985351563,0|0,1:0|0:0,0:0:0:0:
298,103,208376,2,0,L|300:165,1,47.9999985351563,,,0:0:0:0:
362,217,208583,5,0,3:0:0:0:
294,335,208790,1,0,3:0:0:0:
270,242,208997,1,0,3:0:0:0:
385,311,209204,1,0,3:0:0:0:
231,218,209411,5,0,1:0:0:0:
426,335,209618,1,0,0:0:0:0:
191,337,209825,1,0,0:0:0:0:
152,334,209928,1,0,0:0:0:0:
115,325,210031,1,0,0:0:0:0:
81,307,210135,1,0,0:0:0:0:
51,283,210238,2,0,B|37:250|38:214|51:184,1,80,,,0:0:0:0:
142,148,210652,2,0,B|155:196|145:244,1,80,,,0:0:0:0:
107,73,211066,6,0,B|125:61|147:61|165:70,1,47.9999985351563,2|0,0:0|0:0,0:0:0:0:
253,88,211273,2,0,B|269:93|285:92|299:85,1,47.9999985351563,2|0,0:0|0:0,0:0:0:0:
398,31,211480,6,0,B|408:55|411:80|406:103,1,60.0000022888184,2|0,1:0|0:0,0:0:0:0:
469,174,211687,2,0,B|472:200|465:224|453:243,1,60.0000022888184,2|0,1:0|0:0,0:0:0:0:
396,277,211894,6,0,B|364:259|328:259|297:271,1,90.0000034332277,4|0,1:0|0:0,0:0:0:0:
237,289,212307,1,0,1:0:0:0:
130,336,212514,2,0,L|135:269,1,40,0|0,1:0|1:0,0:0:0:0:
99,221,212721,2,0,L|104:154,1,40,0|0,1:0|1:0,0:0:0:0:
84,100,212928,1,0,1:0:0:0:
58,17,213135,6,0,B|95:6|132:22|152:51,1,90.0000034332277,4|0,3:0|0:0,0:0:0:0:
187,99,213549,2,0,B|225:129|278:122|308:88,1,120,4|0,0:0|0:0,0:0:0:0:
375,81,213963,2,0,L|371:21,1,40,4|0,3:0|0:0,0:0:0:0:
453,51,214169,2,0,L|449:-9,1,40,4|0,3:0|0:0,0:0:0:0:
503,112,214376,2,0,L|507:172,1,40,4|0,3:0|0:0,0:0:0:0:
428,140,214583,2,0,L|432:200,1,40,4|0,3:0|0:0,0:0:0:0:
354,290,214790,5,4,3:0:0:0:
352,258,214893,1,4,3:0:0:0:
350,226,214996,1,4,3:0:0:0:
349,194,215100,1,4,3:0:0:0:
347,162,215204,6,0,B|314:147|279:151|251:168,1,90.0000034332277,4|0,0:0|0:0,0:0:0:0:
196,207,215618,1,0,1:0:0:0:
129,339,215825,2,0,B|109:323|96:302,1,40,0|0,1:0|1:0,0:0:0:0:
69,234,216032,2,0,B|58:211|59:185,1,40,0|0,1:0|1:0,0:0:0:0:
64,112,216239,1,0,1:0:0:0:
157,36,216445,2,0,B|192:23|229:26|259:41,1,80,4|0,3:0|0:0,0:0:0:0:
429,55,216859,6,0,B|437:101|426:145,1,90.0000034332277,4|0,1:0|0:0,0:0:0:0:
360,181,217273,2,0,B|425:190|425:190|449:197|463:217,1,90.0000034332277,0|0,1:0|0:0,0:0:0:0:
492,261,217687,2,0,B|502:297|482:332|449:344,1,90.0000034332277,0|0,1:0|0:0,0:0:0:0:
424,277,218100,2,0,B|388:269|353:272|320:282,1,95.9999970703126,0|0,1:0|0:0,0:0:0:0:
227,350,218514,6,0,B|201:321|199:279|218:248,1,90.0000034332277,4|0,1:0|0:0,0:0:0:0:
228,195,218928,1,0,1:0:0:0:
302,73,219135,2,0,B|324:68|346:70|366:77,1,40,0|0,1:0|1:0,0:0:0:0:
392,4,219342,2,0,B|410:18|422:36|429:55,1,40,0|0,1:0|1:0,0:0:0:0:
412,124,219549,1,0,1:0:0:0:
317,203,219756,1,0,1:0:0:0:
286,213,219859,1,0,1:0:0:0:
255,218,219962,1,0,1:0:0:0:
223,218,220066,1,0,1:0:0:0:
191,212,220169,6,0,B|178:179|177:144|186:113,1,90.0000034332277,4|0,3:0|0:0,0:0:0:0:
196,50,220583,2,0,B|197:35|202:22|210:12,1,40,4|0,3:0|0:0,0:0:0:0:
273,59,220790,2,0,B|276:45|283:33|292:25,1,40,4|0,3:0|0:0,0:0:0:0:
345,82,220997,1,4,3:0:0:0:
345,82,221100,1,4,3:0:0:0:
345,82,221204,2,0,B|349:68|358:57|369:51,1,40,8|0,3:0|0:0,0:0:0:0:
434,7,221411,2,0,B|454:36|452:73|432:99,1,80,8|0,3:0|0:0,0:0:0:0:
327,192,221825,6,0,B|310:228|307:267|317:303,1,90.0000034332277,4|0,0:0|0:0,0:0:0:0:
349,349,222239,1,0,1:0:0:0:
210,284,222445,2,0,B|190:280|171:284,1,40,0|0,1:0|1:0,0:0:0:0:
101,333,222652,2,0,B|81:337|61:333,1,40,0|0,1:0|1:0,0:0:0:0:
0,271,222859,1,0,1:0:0:0:
120,138,223066,2,0,B|108:91|119:43,1,80,4|0,3:0|0:0,0:0:0:0:
72,203,223480,6,0,B|98:223|133:224|158:207,1,80,4|0,0:0|0:0,0:0:0:0:
176,198,223790,1,0,0:0:0:0:
176,198,223894,2,0,B|206:183|240:188|264:209,1,80,0|0,1:0|0:0,0:0:0:0:
413,323,224307,5,2,1:0:0:0:
413,323,224410,1,0,1:0:0:0:
413,323,224514,2,0,L|420:264,1,40,0|2,0:0|1:0,0:0:0:0:
379,196,224721,2,0,B|369:163|370:131|378:101,1,95.9999970703126,0|2,0:0|1:0,0:0:0:0:
440,11,225135,6,0,B|408:27|372:28|341:17,1,90.0000034332277,4|0,1:0|0:0,0:0:0:0:
272,1,225549,2,0,B|290:45|291:91|279:132,1,120,4|0,3:0|0:0,0:0:0:0:
247,193,225963,2,0,B|233:207|214:213|196:211,1,40,0|0,1:0|0:0,0:0:0:0:
156,303,226169,2,0,B|136:301|120:290|109:275,1,40,0|0,1:0|0:0,0:0:0:0:
136,154,226376,6,0,B|143:207|106:256|50:264|9:242,1,180.000006866455,2|0,1:0|0:0,0:0:0:0:
3,172,226790,6,0,B|-5:125|3:79,1,90.0000034332277,4|0,0:0|0:0,0:0:0:0:
67,19,227204,2,0,B|109:8|109:8|161:22,1,80,2|0,1:0|0:0,0:0:0:0:
341,72,227618,2,0,B|314:83|286:82|260:74,1,80,0|0,1:0|0:0,0:0:0:0:
228,53,227928,1,0,0:0:0:0:
229,85,228031,1,0,1:0:0:0:
230,117,228134,1,0,1:0:0:0:
232,149,228238,1,0,0:0:0:0:
234,181,228342,1,0,1:0:0:0:
235,212,228446,6,0,B|205:200|173:205|148:222,1,90.0000034332277,4|0,1:0|0:0,0:0:0:0:
93,278,228859,2,0,B|107:236|97:193|71:161,1,120,4|0,3:0|0:0,0:0:0:0:
9,115,229273,2,0,B|20:96|40:87|60:88,1,40,0|0,1:0|0:0,0:0:0:0:
113,74,229480,2,0,B|132:80|152:79|169:72,1,40,0|0,1:0|0:0,0:0:0:0:
172,162,229687,2,0,B|193:160|210:149|221:134,1,40,0|0,1:0|1:0,0:0:0:0:
208,146,229894,1,0,1:0:0:0:
208,146,229997,1,0,1:0:0:0:
285,94,230100,6,0,B|328:72|378:80|411:108,1,120,4|0,0:0|0:0,0:0:0:0:
428,127,230514,2,0,B|453:150|493:145|514:113|508:83,1,120,,,0:0:0:0:
508,83,230928,1,0,1:0:0:0:
501,122,231031,1,0,0:0:0:0:
497,162,231134,1,0,0:0:0:0:
497,202,231238,1,0,0:0:0:0:
501,242,231342,6,0,B|487:291|438:320|386:309|356:275,1,180.000006866455,4|0,0:0|0:0,0:0:0:0:
297,233,231756,6,0,B|265:219|230:224|204:242,1,90.0000034332277,4|0,1:0|0:0,0:0:0:0:
158,295,232169,2,0,L|164:157,1,120,4|0,3:0|0:0,0:0:0:0:
192,64,232583,2,0,B|210:71|224:84|232:99,1,40,2|0,0:0|0:0,0:0:0:0:
316,65,232790,2,0,B|322:83|320:102|314:118,1,40,2|0,0:0|0:0,0:0:0:0:
431,163,232997,6,0,B|431:191|423:217|408:238,1,60.0000022888184,2|0,1:0|0:0,0:0:0:0:
458,318,233204,2,0,B|437:336|412:346|386:349,1,60.0000022888184,2|0,1:0|0:0,0:0:0:0:
328,326,233411,6,0,B|296:314|263:316|235:327,1,90.0000034332277,4|0,0:0|0:0,0:0:0:0:
154,351,233825,2,0,L|151:302,1,40,0|0,1:0|1:0,0:0:0:0:
59,268,234032,2,0,L|80:224,1,40,0|0,1:0|1:0,0:0:0:0:
14,155,234238,2,0,L|54:127,1,40,0|0,1:0|0:3,1:0:0:0:
110,68,234445,1,0,0:0:0:0:
140,77,234548,1,0,0:0:0:0:
172,82,234651,1,0,1:0:0:0:
204,81,234755,1,0,0:0:0:0:
235,74,234858,1,0,0:0:0:0:
265,63,234962,1,0,0:0:0:0:
293,48,235066,6,0,B|286:95|291:141,1,90.0000034332277,4|0,1:0|0:0,0:0:0:0:
296,213,235480,2,0,B|334:213|366:185|372:147|359:116,1,120,4|0,3:0|0:0,0:0:0:0:
372,55,235894,2,0,B|391:49|409:51|425:59,1,40,2|0,1:0|0:0,0:0:0:0:
512,97,236100,2,0,B|498:93|484:93|472:97,1,40,,,0:0:0:0:
459,180,236307,2,0,B|447:187|438:198|434:210,1,40,,,0:0:0:0:
494,268,236514,2,0,B|493:282|496:295|501:307,1,40,0|0,1:0|0:0,0:0:0:0:
401,336,236721,6,0,B|347:284|267:280|208:318,1,191.999994140625,6|0,1:0|0:0,0:0:0:0:
71,151,237342,6,0,B|146:198|246:166|279:84,1,240.000009155274,6|0,1:0|0:0,0:0:0:0:
381,215,237963,6,0,L|394:63,1,140.239996972052,6|2,1:0|1:0,0:0:0:0:
256,192,238376,12,0,241687,0:0:0:0:
